#TITLE:Contract;
#SUBTITLE:~Sky Fid original~;
#ARTIST:Beatmania DistorteD;
#TITLETRANSLIT:;
#SUBTITLETRANSLIT:;
#ARTISTTRANSLIT:;
#CREDIT:;
#BANNER:contract -banner-.png;
#BACKGROUND:contract -bg-.png;
#LYRICSPATH:;
#CDTITLE:sky fid.png;
#MUSIC:BeatmaniaIIDX 13 - CONTRACT.mp3;
#OFFSET:-1.293;
#SAMPLESTART:52.900;
#SAMPLELENGTH:12.000;
#SELECTABLE:YES;
#BPMS:0.000=180.020;
#STOPS:;
#BGCHANGES:;
// cache tags:
#FIRSTBEAT:0.000;
#LASTBEAT:307.000;
#SONGFILENAME:Songs/Chilean Keyboard Megapack 3/(Sky Fid) Contract/Contract.sm;
#HASMUSIC:1;
#HASBANNER:1;
#MUSICLENGTH:106.083;
// end cache tags

//---------------dance-single - ----------------
#NOTES:
     dance-single:
     :
     Challenge:
     12:
     1.000,1.000,1.000,0.179,1.000,816.000,184.000,19.000,0.000,2.000:
1001
0000
0010
1001
0000
0001
0101
0000
,
1000
1100
0000
0110
1001
0000
0110
0000
,
1010
0000
0100
1010
0000
0001
1001
0000
,
0010
0000
0110
0000
0000
0000
0001
0100
0010
0000
1001
0000
0100
0000
0010
0000
,
1001
0000
0110
0110
0000
1100
1100
0000
,
0101
0101
0000
0010
1100
0010
1001
0101
,
0011
0100
0011
0100
1010
0100
1010
0010
,
1000
0100
1000
0010
0100
0010
1000
0001
0010
0100
1000
0010
0100
0001
0010
0100
,
1001
0000
0010
0000
1100
0000
0001
0000
0010
0100
0010
0100
1000
0000
0101
0000
,
1010
0000
0001
0000
1100
0000
0001
0000
1000
0100
0010
0001
1000
0000
0101
0000
,
1010
0000
1000
0000
0110
0000
0001
0000
1000
0010
0100
0001
0010
0000
1010
0000
,
0101
0000
0010
0000
1001
0000
0010
1000
0010
0100
0001
0010
1000
0010
0001
0100
,
0110
0000
0001
0000
0110
0000
1000
0010
1000
0001
0010
0100
1000
0000
0101
0000
,
1010
0000
0010
0000
1001
0000
0100
0001
0010
0001
1000
0100
0010
0000
0110
0000
,
1001
0000
0001
0000
1100
0000
0001
1000
0010
0100
0001
0010
1000
0000
0110
0000
,
1000
0100
0010
0001
1000
0100
0010
0001
1000
0010
0100
0001
1000
0010
0100
0001
,
1100
0001
0100
0010
1000
0001
1000
0100
0010
0001
0100
0010
0100
0001
0010
0001
,
0100
0010
1000
0100
0010
0001
1000
0100
1000
0001
0010
0100
1000
0001
0100
0010
,
0100
0001
1000
0010
0100
0010
1000
0001
0100
0001
0010
0100
0010
0001
0100
0001
,
1000
0100
0010
0001
1000
0100
0010
0001
1000
0010
0001
0010
1000
1000
0001
0100
,
0011
1000
0100
1000
0001
0100
0010
1000
0001
0010
0001
1000
0100
0010
0001
1000
,
0110
1000
0001
0100
0001
0010
0100
0010
0001
0100
0010
1000
0001
0100
0001
0010
,
1100
0001
0010
1000
0010
0100
1000
0010
1001
0100
0001
1000
0001
0010
0001
0100
,
0011
0000
0000
0000
0000
0000
0000
0000
0000
0000
0000
0000
0100
0000
0000
0000
0000
0000
0000
0000
0000
0000
0000
0000
0001
0000
0000
0000
0000
0000
0000
0000
0000
0000
0000
0000
1000
0000
0000
0000
0000
0000
0000
0000
0000
0000
0000
0000
0101
0000
0000
0000
0000
0000
0000
0000
0000
0000
0000
0000
1000
0000
0000
0000
0000
0000
0000
0000
0000
0000
0000
0000
0001
0000
0000
0000
0000
0000
0000
0000
0000
0000
0000
0000
0010
0000
0000
0000
0000
0000
0000
0000
0000
0000
0000
0000
1100
0000
0000
0000
0000
0000
0000
0000
0000
0000
0000
0000
0001
0000
0000
0000
0000
0000
0000
0000
0000
0000
0000
0000
1000
0000
0000
0000
0000
0000
0000
0000
0000
0000
0000
0000
0001
0000
0000
0000
0000
0000
0000
0000
0000
0000
0000
0000
1000
0000
0000
0000
0000
0000
0000
0000
0010
0000
0000
0000
0000
0000
0000
0000
0100
0000
0000
0000
0000
0000
0000
0000
0010
0000
0000
0000
0000
0000
1000
0000
0000
0000
0000
0000
0100
0000
0000
0000
0000
0000
0010
0000
0000
0000
0000
0000
,
0001
0001
1100
0010
0101
0010
0100
0001
,
1001
1000
0001
0010
1100
0001
1100
0000
,
1001
0010
0100
0010
1100
0001
0100
0010
,
1001
0001
1000
0100
0110
0001
0110
1000
,
0101
0010
1001
0100
0101
0010
1100
0001
,
0110
1000
0110
0001
1000
0011
0100
0000
,
1010
0100
1010
0001
0110
0101
1000
1010
,
0101
0010
1001
0100
1010
0001
0110
0001
,
0110
0010
0110
0001
0201
0000
0301
0000
,
0101
0100
0100
0010
1000
1010
0200
0000
,
1310
0100
0101
0010
1001
0100
0110
0001
,
1100
0000
0010
0000
0100
0000
0011
0000
1000
0000
0010
0000
1002
0000
0010
0003
,
1100
0000
0000
0001
0000
0000
0100
0000
0000
1010
0000
0000
0120
0000
0000
0000
0000
0030
0101
0000
0000
0000
0000
0000
,
1100
0000
0010
0000
1000
0000
0001
0000
0011
0000
0001
0010
0100
0000
1001
0000
,
1000
0001
0010
1000
0010
0001
0100
0001
0010
0001
0100
0010
1000
0001
0010
0100
,
1000
0010
0100
0001
0010
0100
1000
0010
0100
0010
1000
0001
1000
0100
0010
0001
,
1100
0000
0001
0101
0000
0010
1100
0000
,
0001
0000
0101
0000
0000
0000
0010
0000
1001
0000
0001
0100
0010
0000
1000
0100
,
0011
0000
1100
0011
0000
1010
0101
0000
,
1001
0000
0110
0000
0000
0000
0101
0000
0110
0000
0001
1000
0001
0000
1000
0010
,
1100
0000
0010
1000
0011
0000
0100
0000
0001
1000
0101
0000
1001
0000
0100
0001
,
1100
0000
1010
0000
1001
0100
0001
0000
1001
0000
0110
0001
1000
0000
0110
0001
,
1000
0000
0010
1000
0001
1000
0011
0000
1000
0001
0010
0100
1001
0000
0100
0010
,
0001
1000
0110
0000
0010
1000
0010
0100
0001
0010
0100
1000
0001
0010
0001
1000
,
1001
0000
0000
0000
,
0000
0000
0000
0000
,
0000
0000
0000
0000
0000
0000
0000
0000
0000
0000
0000
0000
0000
2200
0000
0000
,
0000
0000
0000
3300
0000
0000
0000
0000
0000
0000
0000
0000
0000
0000
0000
0000
,
1001
0000
0100
0000
0101
0000
0010
1000
0001
0000
0101
0000
0102
0000
0100
0000
,
1103
0000
0010
0000
0100
0000
0110
0000
0001
1000
0010
0000
0101
0000
0010
0000
,
1001
0010
0100
0001
0101
0010
0100
0001
,
1020
0000
0100
0000
0031
0000
0100
0010
1000
0000
0011
0000
0100
0000
1020
0000
,
1000
0030
0101
0000
0001
0000
0110
0000
1000
0000
0010
0000
0102
0000
1000
0003
,
0110
0000
0010
0000
1000
0000
0011
0000
1000
0000
1100
0000
0021
0000
0001
0030
,
1100
0001
0010
0001
1000
0001
1000
0010
0100
0010
1000
0100
0010
0100
1000
0001
,
0010
0100
0010
0100
1000
0001
0010
0100
1000
0010
0100
0001
0010
0001
1000
0010
,
1001
0100
0010
1000
0001
0100
0001
0010
0100
1000
0100
0010
0001
1000
0010
0100
,
0010
0001
1000
0100
0010
1000
0001
0010
0100
0010
0001
0100
0010
1000
0001
1000
,
0100
0001
0100
0010
0001
1000
0100
0010
0100
1000
0001
1000
0100
0010
0001
1000
,
0001
0010
0100
1000
0001
0010
0100
1000
0010
0100
1000
0001
0010
0100
0001
1000
,
0010
1000
0001
0100
0001
0010
0001
1000
0100
0010
0100
1000
0010
1000
0100
1000
,
0010
0001
0010
0100
0001
0010
0100
1000
0100
0010
0001
0100
0010
1000
0001
0010
,
0100
0001
0100
0001
0100
1000
0100
1000
0001
0010
0100
0010
0001
1000
0100
0010
,
0001
0100
0001
0100
0001
1000
0001
1000
0101
0010
1000
0001
0110
1000
0010
0100
,
0011
0000
0000
0000
1000
0000
0000
0000
0101
0000
0000
0000
1020
0000
0000
0000
0100
0000
0000
0030
1100
0000
0000
0000
2001
0000
0000
0000
0010
0000
0000
3000
,
0110
0000
0000
0000
0021
0000
0000
0000
0100
0000
0000
0030
1001
0000
0000
0000
0201
0000
0000
0000
0010
0000
0301
0000
2010
0000
0000
0000
0100
0000
3001
0000
,
0220
0330
0001
1000
0011
0000
1100
0000
0010
1000
0110
0000
1001
0000
1000
0100
,
1010
0000
0110
0000
0001
0100
0011
0000
1010
0000
0010
1000
0110
0000
0110
0001
,
1010
0000
0101
1000
0010
1000
0001
0000
0001
0010
0100
1000
0011
0000
1001
0100
,
0001
1000
0011
0000
1000
0001
1000
0010
0101
1000
0010
1000
0101
1000
0010
1000
,
0101
0010
1000
0100
0001
0010
1100
0010
0001
0100
0010
0001
1010
0100
1000
0010
,
0001
0000
0000
0000
0000
0000
0000
0000
0000
0000
0000
0000
0100
0000
0000
0000
0000
0000
0000
0000
0000
0000
0000
0000
0011
0000
0000
0000
0000
0000
0000
0000
0000
0000
0000
0000
1000
0000
0000
0000
0000
0000
0000
0000
0000
0000
0000
0000
0100
0000
0000
0000
0000
0000
0000
0000
0000
0000
0000
0000
1000
0000
0000
0000
0000
0000
0000
0000
0000
0000
0000
0000
0100
0000
0000
0000
0000
0000
0000
0000
0000
0000
0000
0000
0010
0000
0000
0000
0000
0000
0000
0000
0000
0000
0000
0000
1001
0000
0000
0000
0000
0000
0000
0000
0000
0000
0000
0000
0010
0000
0000
0000
0000
0000
0000
0000
0000
0000
0000
0000
1000
0000
0000
0000
0000
0000
0000
0000
0100
0000
0000
0000
0000
0000
0000
0000
0010
0000
0000
0000
0000
0000
0000
0000
0001
0000
0000
0000
0000
0000
0000
0000
0100
0000
0000
0000
0000
0000
0000
0000
0010
0000
0000
0000
0000
0000
0000
0000
1000
0000
0000
0000
0000
0000
0001
0000
0000
0000
0000
0000
0010
0000
0000
0000
0000
0000
0100
0000
0000
0000
0000
0000
,
2000
0000
0000
3000
;
